#TITLE:Beyond the Dark Sun;
#SUBTITLE:by young_editer@hotmail.com;
#ARTIST:Wintersun;
#TITLETRANSLIT:;
#SUBTITLETRANSLIT:;
#ARTISTTRANSLIT:;
#CREDIT:;
#BANNER:logo-bn.bmp;
#BACKGROUND:wintersun-bg.jpg;
#LYRICSPATH:;
#CDTITLE:Nepex-Chart.bmp;
#MUSIC:Wintersun (Beyond the Dark Sun).mp3;
#OFFSET:0.100;
#SAMPLESTART:99.640;
#SAMPLELENGTH:12.000;
#SELECTABLE:YES;
#BPMS:0.000=179.980,1.500=89.990,7.500=179.980,43.500=89.990,51.000=179.980,225.000=89.990,227.500=179.980,231.000=209.940,267.000=209.900,282.333=209.720,287.000=210.800,287.500=195.500,288.500=209.800,294.000=209.840,294.500=209.700,414.500=210.000;
#STOPS:287.563=0.020
,287.688=0.020
,287.813=0.020
,287.938=0.020
;
#BGCHANGES:;

//---------------dance-single - Melodic Death Metal----------------
#NOTES:
     dance-single:
     Melodic Death Metal:
     Hard:
     14:
     1.000,1.000,1.000,1.000,1.000:
0000
0000
0000
0000
0000
0000
0000
0000
0000
0000
0000
0000
2002
3003
0010
0010
0010
0010
0010
0010
0010
0010
0010
0010
2020
3030
0202
0303
2200
3300
0001
0001
,
0001
0001
0001
0001
0001
0001
0001
0001
0001
0001
0001
0001
0202
0303
1000
1000
1000
1000
1000
1000
1000
1000
1000
1000
2002
3003
0202
0303
0010
0000
0000
0000
,
0001
0100
0001
0000
1000
0000
0010
0100
0010
0100
0001
0100
0010
1000
0200
1300
,
0001
0001
0001
0001
0001
0001
0001
0001
0001
0001
0002
0103
0020
0130
2000
3100
,
0010
0010
0010
0010
0010
0010
0010
0010
0010
0010
0010
0010
0010
0010
0020
0130
,
0001
0001
0001
0001
0001
0001
0001
0001
0001
0001
0002
0103
0020
0130
1000
1000
,
1000
1000
2000
3100
0002
0013
0200
0310
2000
3010
0002
0103
0020
0130
2000
3100
,
0001
0001
0001
0001
0001
0001
0001
0001
0001
0001
0002
0103
0020
0031
0200
0310
,
1000
1000
1000
1000
1000
1000
1000
1000
1000
1000
1000
1000
1000
1000
2000
3100
,
0010
0010
0010
0010
0010
0010
0010
0010
0010
0010
0020
0130
2000
3100
0010
0010
,
0010
0000
0010
0000
0020
0000
0130
0000
0002
0000
0013
0000
0200
0000
0310
0000
2000
0000
3100
0000
0020
0000
0130
0000
0020
0000
0031
0000
2000
0100
3010
0001
,
0100
0010
0100
0010
1000
0100
0010
0001
0010
0100
1000
0100
0010
0100
0010
0001
0100
0010
0100
0001
0010
0100
1000
0100
0010
0001
0010
0100
1000
0100
0010
0100
,
1000
0010
0100
0010
1000
0100
0001
0100
0010
1000
0010
0001
0010
0100
0001
0100
0010
0001
0100
0010
0002
0000
0000
0000
1003
0000
0010
0000
0200
0000
0310
0000
,
0001
0001
0001
0001
0001
0001
0001
0001
0001
0001
0001
0001
0002
0103
2000
3010
,
0200
0310
1000
1000
1000
1000
1000
1000
1000
1000
1000
1000
1000
1000
1000
1000
,
2000
3100
0010
0010
0010
0010
0010
0010
0010
0010
0010
0010
0020
0031
0200
0301
,
1000
1000
1000
1000
2000
3010
0200
0301
0020
0031
2000
3100
0020
0130
0002
0103
,
2000
3010
0100
0100
0100
0100
0100
0100
0100
0100
0100
0100
0200
0310
0002
0013
,
2000
3100
0010
0010
0010
0010
0010
0010
0010
0010
0010
0010
0010
0010
0010
0010
,
2000
3100
0001
0001
0001
0001
0001
0001
0001
0001
0001
0001
0002
0103
0020
1030
,
0100
0100
0100
0100
0200
1300
0020
0031
2000
3100
0020
0031
2000
3100
0020
0130
,
0022
0033
0220
0000
1001
1001
1001
1001
,
1001
0000
1001
0000
1001
0000
1001
0000
1001
0000
1001
0330
2020
0000
0101
3030
,
0202
0000
1010
0303
2002
0000
0110
0000
0110
0000
0110
0000
0110
0000
0110
0000
,
0110
0000
0000
0000
0000
0000
0000
0000
0110
0000
0000
0000
0000
0000
0000
0000
0110
0000
0000
0000
0000
0000
0000
0000
0110
0000
0000
0000
0000
0000
0000
0000
0110
0000
0000
0000
0000
0000
0000
0000
0110
0000
0000
3000
0003
0000
0000
0000
0202
0000
0000
0000
0000
0000
0000
0000
1010
0000
0000
0000
0303
0000
0000
0000
,
0220
0000
1001
0330
2020
0000
0101
0000
0101
0000
0101
0000
0101
0000
0101
0000
,
0101
0000
0101
0000
0101
0000
0101
0000
0101
0000
0101
3030
0202
0000
1010
0303
,
0220
0000
1001
0330
2200
0000
0011
0000
0011
0000
0000
0011
0011
0000
0011
0000
,
0000
0011
0011
0000
0011
0000
0011
0000
0000
0011
0011
3300
0202
0000
1010
0000
,
1010
0000
1010
0303
0220
0000
1001
0000
1001
0000
1001
0000
1001
0000
1001
0000
,
1001
0000
1001
0000
1001
0000
1001
0000
1001
0000
1001
0330
2002
0000
0110
3003
,
2020
0000
0101
3030
0202
0000
1010
0000
1010
0000
1010
0000
1010
0000
1010
0000
,
1010
0000
1010
0000
1010
0000
1010
0000
1010
0000
1010
0303
2002
0000
0110
3003
,
0022
0000
1100
0033
2020
0000
0101
0000
0101
0000
0101
0000
0101
0000
0101
0000
,
0101
0000
0101
0000
0101
0000
0101
0000
0101
0000
0101
3030
0220
0000
1001
0330
,
2020
0000
0101
3030
0202
0000
1010
0000
1010
0000
1010
0000
1010
0000
1010
0000
,
1010
0000
1010
0000
2303
0100
0010
0001
0100
0010
0100
0001
0010
0100
0010
0100
,
0001
0100
0010
0001
3020
0130
0001
0001
0001
0001
0001
0001
0001
0001
0001
0001
,
0002
0103
2000
3100
0020
0031
1000
1000
1000
1000
1000
1000
2000
3010
0200
0301
,
0020
0031
0200
0301
2000
3000
0010
0100
0010
0100
0010
0000
1000
0001
1000
0001
,
1000
0000
0010
0000
0100
0001
0100
0010
1000
0100
0010
0001
0100
0010
0100
0001
,
2000
0000
3020
0000
0032
0010
0100
0100
0100
0100
0100
0100
0100
0100
0100
0100
,
0023
0001
0230
0010
2300
0100
0010
0010
0010
0010
0010
0010
3010
0100
0001
0100
,
0010
0000
0000
0000
0001
1000
0001
1000
0001
0000
0000
0000
0100
0010
0100
0010
,
0100
0000
0000
0000
0001
1000
0010
1000
0001
0100
0010
1000
0001
0100
0010
1000
,
0001
0000
0000
0000
0020
0130
1000
1000
1000
1000
1000
1000
1000
1000
1000
1000
,
2000
3001
0020
0130
2000
3001
0100
0100
0100
0100
0100
0100
0100
0100
0100
0100
,
0100
0100
0100
0100
0200
1300
0001
0001
0001
0001
0001
0001
0001
0001
0001
0001
,
0002
0013
0200
0310
1000
1000
1000
1000
2000
3100
0020
0130
0002
0013
2000
3100
,
0020
0130
0002
0103
0020
1030
0100
0100
0100
0100
0100
0100
0100
0100
0100
0100
,
0200
0310
0002
1003
0200
1300
0010
0010
0010
0010
0010
0010
0010
0010
0010
0010
,
0010
0010
0010
0010
0020
0130
0001
0001
0001
0001
0001
0001
0001
0001
0001
0001
,
0002
0103
0020
1030
0100
0100
0100
0100
0200
0310
2000
3000
0020
0130
0002
0103
,
0020
1030
0200
0310
0002
0003
0100
0100
0100
0100
0100
0100
0100
0100
0100
0100
,
0200
0310
0002
0103
0020
0130
0001
0001
0001
0001
0001
0001
0002
1003
0200
0310
,
0002
0103
0020
1030
0002
0003
1000
0100
0010
0001
1000
0000
0010
0100
1000
0001
,
0010
2002
0000
0000
,
3013
0100
0010
0100
0000
0000
0001
0100
0010
1000
0100
0010
0001
1000
0100
0000
,
0011
0100
0011
1000
0101
0010
1001
0100
,
0011
1000
0101
0010
1001
0100
1010
0100
,
1001
0100
1010
0001
1100
0010
1100
0001
,
1010
0100
1010
0001
1100
0010
1001
0100
,
1010
0001
1100
0010
1001
0100
1010
0001
,
1100
0001
1010
0001
1100
0010
1001
0100
,
0011
0000
0100
0000
0010
0001
0100
0010
1000
0100
0010
0001
0100
0010
1000
0100
,
1000
0001
0100
0010
0100
0001
0010
0001
0100
0010
1000
0100
0010
0001
2200
0000
,
3300
0001
1100
0010
1001
0100
1010
0001
,
1100
0010
1001
0100
1010
0001
1100
0010
,
1100
0001
1010
0100
1010
0001
1100
0010
,
1001
0100
1010
0001
1100
0010
1100
0001
,
1100
0000
0000
0010
0000
0000
1001
0000
0000
0100
0000
0000
1010
0000
0000
0100
0000
0000
1010
0000
0000
0001
0000
1000
,
0000
0010
0000
0100
0000
0001
0000
0010
0000
0100
0000
0010
0000
0001
0000
0100
0000
0010
0000
1000
0000
0001
0000
0000
,
0000
0000
0000
0110
0000
0000
0000
0000
0000
2020
0000
0000
0000
0000
0000
3030
0000
0000
1000
0000
0001
0000
0100
0000
,
0010
1000
0100
0010
0001
0100
0010
0100
0010
1000
0000
0001
,
1010
0001
0000
0100
0000
0010
1001
0100
0000
0001
0000
0010
,
1001
0100
0000
0010
0000
1000
0011
0100
0000
0010
0000
1000
,
0011
0100
0010
1000
0100
0010
1001
0100
0010
1000
0001
0100
,
1010
0001
0010
0100
0010
0100
0011
1000
0000
0100
0000
0010
,
1100
0010
0000
0001
0000
0100
0011
0100
0000
0100
0000
1000
,
0011
1000
0000
0010
0000
0100
1001
0100
0000
1000
0010
0100
,
1001
0100
0010
1000
0100
1000
0011
0100
0010
1000
0100
0010
,
0101
1000
0100
0010
0001
0100
0011
1000
0001
1000
0000
0010
,
0000
0100
0000
0001
0000
1000
0000
0100
0010
0100
0001
1000
,
0101
0000
0000
0000
0000
0000
0000
0000
0000
0000
0000
0000
0000
0000
0000
0000
0010
0000
0000
0000
0000
0000
0000
0000
0000
0000
0000
0000
0000
0000
0000
0000
0001
0000
0000
0000
0000
0000
0000
0000
0000
0000
0000
0000
0000
0000
0000
0000
2002
0000
0000
0000
0000
0000
0000
0000
0000
0000
0000
0000
0000
0000
0000
0000
0000
0000
0000
0000
0000
0000
0000
0000
0000
0000
0000
0000
0000
0000
0000
0000
0000
0000
0000
0000
0000
0000
0000
0000
0000
0000
0000
0000
0000
3003
0000
0000
2002
0000
0000
0000
0000
0000
0000
0000
0000
0000
0000
0000
0000
0000
0000
0000
0000
0000
0000
0000
0000
0000
0000
0000
0000
0000
0000
0000
0000
0000
0000
0000
0000
0000
0000
0000
0000
0000
0000
0000
0000
0000
0000
0000
0000
3003
0000
0000
2002
0000
0000
0000
0000
0000
0000
0000
0000
0000
0000
0000
0000
0000
0000
0000
0000
0000
0000
0000
0000
0000
0000
0000
0000
0000
0000
0000
0000
0000
0000
0000
0100
0000
0000
0000
0000
0000
0000
0000
0000
0000
0000
0000
0000
0000
0000
0000
,
0010
0000
0000
0000
0100
0000
0000
0000
0010
0000
0000
0000
0100
0000
0000
0000
0010
0000
0000
0000
0100
0000
0000
0000
0010
0000
0000
0000
0100
0000
0000
0000
0010
0000
0000
0000
3103
0000
0000
0010
0000
0000
0100
0000
0000
0010
0000
0000
,
1000
0001
1000
0001
1000
0010
1000
0010
1000
0010
1000
0010
1001
0000
0000
0000
,
0010
1000
0100
0010
0100
0010
0001
0100
0010
1000
0100
1000
,
0001
1000
0001
1000
0001
0100
0010
0100
0010
1000
0100
1000
,
0001
0100
0010
0100
0010
0001
0010
0100
0010
0100
0010
1000
,
0100
1000
0001
0100
0010
1000
0100
0010
0001
0010
0100
1000
,
0100
0010
0100
0001
0100
0010
0100
0010
0001
0010
1000
0010
,
0001
0010
0100
0001
0100
1000
0100
0001
0100
1000
0100
0001
,
0100
0010
0001
0100
0010
1000
0100
1000
0001
0100
0010
1000
,
0100
1000
0001
0100
0010
0100
0010
1000
0100
0001
0100
0010
,
0001
0100
0010
0100
1000
0100
0010
0100
0010
0001
0100
0001
,
0010
0100
1000
0001
0100
0010
1000
0001
0100
0010
1000
0100
,
1000
0001
0100
0010
1000
0001
0100
0010
1000
0100
0010
0001
,
0010
0001
0010
0100
1000
0100
0010
0100
0010
0001
0100
0001
,
1000
0100
1000
0001
0100
0010
0100
0010
1000
0100
0010
0100
,
0010
0001
0100
1000
0001
0100
0010
1000
0100
1000
0001
0100
,
0010
0100
0010
1000
0001
0100
0001
0010
0001
0100
0010
1000
,
0100
0001
0100
0010
0001
0100
0010
0100
1000
0202
0000
0000
,
1303
0100
0010
0001
0010
0100
1000
0100
0001
0100
0010
0001
,
0100
0010
1000
0100
1000
0010
1000
0001
0100
0010
0100
0001
,
0010
0100
0010
0001
0100
0010
0100
0010
1000
0100
1000
0001
,
0100
0010
0100
0001
0100
0001
0100
0001
1000
0001
1000
0001
,
1000
0010
1000
0010
1000
0001
0100
0010
1000
0100
0001
0100
,
0010
0001
0100
0010
0100
0001
0010
0100
0010
0001
0100
0010
,
0100
0001
0010
0100
0010
1000
0010
0001
0010
1000
0010
0001
,
0100
0010
1000
0100
1000
0001
0100
0010
1000
0100
1000
0001
,
0100
0010
0100
0010
1000
0100
1000
0100
1000
0010
0100
0010
,
1000
0100
0010
0100
1000
0010
0100
0010
1000
0100
0010
1000
,
0010
0100
0010
1000
0100
0010
1000
0100
1000
0100
1000
0010
,
0100
0010
1000
0001
0100
0010
0100
0001
0010
0100
0010
0001
,
0100
0001
1000
0100
0001
0100
1000
0100
0010
0001
0100
0010
,
1000
0001
0100
0010
0100
0001
0010
0100
0010
0001
0100
0010
,
1000
0100
1000
0010
0100
0010
1000
0100
0010
0100
0010
0100
,
0010
1000
0100
1000
0010
0100
0010
0100
0001
0010
0100
0010
,
0001
0100
0010
0100
0001
1000
0001
1000
0001
1000
0001
1000
,
0001
0010
0001
0010
0001
0100
0010
1000
0100
1000
0001
0100
,
0010
0001
0010
0100
1000
0100
0010
0001
1000
0220
0000
0000
,
0000
0000
0000
0330
;

//---------------dance-single - Copied from Melodic Death Metal----------------
#NOTES:
     dance-single:
     Copied from Melodic Death Metal:
     Challenge:
     15:
     1.000,1.000,1.000,1.000,1.000:  // measure 1
0000
0000
0000
0000
0000
0000
0000
0000
0000
0000
0000
0000
2002
3003
0010
0010
0010
0010
0010
0010
0010
0010
0010
0010
2200
3300
0202
0303
2200
3300
0001
0001
,  // measure 2
0001
0001
0001
0001
0001
0001
0001
0001
0001
0001
0001
0001
0220
0330
1000
1000
1000
1000
1000
1000
1000
1000
1000
1000
0022
0033
0202
0303
0010
0000
0000
0000
,  // measure 3
0001
0100
0001
0000
1000
0000
0010
0100
0010
0100
0001
0100
0010
1000
0220
1330
,  // measure 4
0001
0001
0001
0001
0001
0001
0001
0001
0001
0001
2020
3130
2002
3103
0022
0133
,  // measure 5
0010
0010
0010
0010
0010
0010
0010
0010
0010
0010
0010
0010
0010
0010
2002
3103
,  // measure 6
0001
0001
0001
0001
0001
0001
0001
0001
0001
0001
2020
3130
0022
0133
1000
1000
,  // measure 7
1000
1000
0011
0100
1001
0010
1100
0010
0101
0010
1001
0100
0011
0100
1001
0100
,  // measure 8
0001
0001
0001
0001
0001
0001
0001
0001
0001
0001
2020
3130
2020
3031
0202
0313
,  // measure 9
1000
1000
1000
1000
1000
1000
1000
1000
1000
1000
1000
1000
1000
1000
0022
0133
,  // measure 10
0010
0010
0010
0010
0010
0010
0010
0010
0010
0010
2002
3103
2020
3130
0010
0010
,  // measure 11
0010
0000
0010
0000
1001
0000
0100
0000
1001
0000
0010
0000
0101
0000
0010
0000
1001
0000
0100
0000
0011
0000
0100
0000
1010
0000
0001
0000
2010
0100
0010
0001
,  // measure 12
0100
0001
0010
3100
0012
0100
0010
1000
0010
0100
1000
0100
1023
0100
1000
0001
0100
1000
0100
0031
1200
0010
1000
0001
0010
0001
0010
0301
2010
0100
0010
0100
,  // measure 13
0001
0010
0100
3001
1020
0100
0001
0100
0001
1000
0100
0031
1200
0010
0001
1000
0010
0001
1000
0310
1002
0000
0000
0000
1003
0000
0010
0000
2200
0000
3310
0000
,  // measure 14
0001
0001
0001
0001
0001
0001
0001
0001
0001
0001
0001
0001
2020
3130
2002
3013
,  // measure 15
0202
0313
1000
1000
1000
1000
1000
1000
1000
1000
1000
1000
1000
1000
1000
1000
,  // measure 16
0022
0133
0010
0010
0010
0010
0010
0010
0010
0010
0010
0010
2200
3301
0220
0331
,  // measure 17
1000
1000
1000
1000
0101
0010
1100
0001
0110
0001
1010
0100
0011
0100
1001
0100
,  // measure 18
1001
0010
0100
0100
0100
0100
0100
0100
0100
0100
0100
0100
2002
3013
0202
0313
,  // measure 19
2002
3103
0010
0010
0010
0010
0010
0010
0010
0010
0010
0010
0010
0010
0010
0010
,  // measure 20
2002
3103
0001
0001
0001
0001
0001
0001
0001
0001
0001
0001
2020
3130
0022
1033
,  // measure 21
0100
0100
0100
0100
0011
1000
0110
0001
1010
0100
1010
0001
1010
0100
1001
0100
,  // measure 22
0022
0033
0220
0000
1001
1001
1001
1001
,  // measure 23
1001
0000
1001
0000
1001
0000
1001
0000
1001
0000
1001
0330
2020
0000
0101
3030
,  // measure 24
0202
0000
1010
0303
2002
0000
0110
0000
0110
0000
0110
0000
0110
0000
0110
0000
,  // measure 25
0110
0000
0000
0000
0000
0000
0000
0000
0110
0000
0000
0000
0000
0000
0000
0000
0110
0000
0000
0000
0000
0000
0000
0000
0110
0000
0000
0000
0000
0000
0000
0000
0110
0000
0000
0000
0000
0000
0000
0000
0110
0000
0000
3000
0003
0000
0000
0000
0202
0000
0000
0000
0000
0000
0000
0000
1010
0000
0000
0000
0303
0000
0000
0000
,  // measure 26
0220
0000
1001
0330
2020
0000
0101
0000
0101
0000
0101
0000
0101
0000
0101
0000
,  // measure 27
0101
0000
0101
0000
0101
0000
0101
0000
0101
0000
0101
3030
0202
0000
1010
0303
,  // measure 28
0220
0000
1001
0330
2200
0000
0011
0000
0011
0000
0000
0011
0011
0000
0011
0000
,  // measure 29
0000
0011
0011
0000
0011
0000
0011
0000
0000
0011
0011
3300
0202
0000
1010
0000
,  // measure 30
1010
0000
1010
0303
0220
0000
1001
0000
1001
0000
1001
0000
1001
0000
1001
0000
,  // measure 31
1001
0000
1001
0000
1001
0000
1001
0000
1001
0000
1001
0330
2002
0000
0110
3003
,  // measure 32
2020
0000
0101
3030
0202
0000
1010
0000
1010
0000
1010
0000
1010
0000
1010
0000
,  // measure 33
1010
0000
1010
0000
1010
0000
1010
0000
1010
0000
1010
0303
2002
0000
0110
3003
,  // measure 34
0022
0000
1100
0033
2020
0000
0101
0000
0101
0000
0101
0000
0101
0000
0101
0000
,  // measure 35
0101
0000
0101
0000
0101
0000
0101
0000
0101
0000
0101
3030
0220
0000
1001
0330
,  // measure 36
2020
0000
0101
3030
0202
0000
1010
0000
1010
0000
1010
0000
1010
0000
1010
0000
,  // measure 37
1010
0000
1010
0000
2303
0100
0010
0001
0100
0010
0100
0001
0010
0100
0010
0100
,  // measure 38
0001
0100
0010
0001
3220
1330
0001
0001
0001
0001
0001
0001
0001
0001
0001
0001
,  // measure 39
2020
3130
2002
3103
2020
3031
1000
1000
1000
1000
1000
1000
0101
0010
1100
0001
,  // measure 40
0110
0001
1010
0001
1100
0000
0010
0100
0010
0100
0010
0000
1000
0001
1000
0001
,  // measure 41
1000
0000
0010
0000
0100
0001
1100
0010
1000
0100
1010
0001
0100
0010
1100
0001
,  // measure 42
2200
0000
0000
0000
0000
0000
0000
0000
3322
0000
0000
0000
0000
0000
0000
0003
2032
0000
0000
0000
0010
0000
0000
0000
3100
0000
0000
0000
0100
0000
0000
0000
0100
0000
0000
0000
0100
0000
0000
0000
0100
0000
0000
0000
0100
0000
0000
0000
0100
0000
0000
0000
0100
0000
0000
0000
0100
0000
0000
0000
0100
0000
0000
0000
,  // measure 43
2023
3001
2230
3010
2302
0103
0010
0010
0010
0010
0010
0010
3010
0100
0001
0100
,  // measure 44
0010
0000
0000
0000
0001
1000
0001
1000
0001
0000
0000
0000
0100
0010
0100
0010
,  // measure 45
0100
0000
0000
0000
0001
1000
0010
1000
0001
0100
0010
1000
0001
0100
0010
1000
,  // measure 46
0001
0000
0000
0000
0022
0133
1000
1000
1000
1000
1000
1000
1000
1000
1000
1000
,  // measure 47
0220
0331
2020
3130
2020
3031
0100
0100
0100
0100
0100
0100
0100
0100
0100
0100
,  // measure 48
0100
0100
0100
0100
0022
1033
0001
0001
0001
0001
0001
0001
0001
0001
0001
0001
,  // measure 49
2200
3310
0202
0313
1000
1000
1000
1000
0011
0100
1010
0100
1001
0010
1001
0100
,  // measure 50
1010
0100
1001
0100
0011
1000
0100
0100
0100
0100
0100
0100
0100
0100
0100
0100
,  // measure 51
2002
3013
0202
1303
0022
1033
0010
0010
0010
0010
0010
0010
0010
0010
0010
0010
,  // measure 52
0010
0010
0010
0010
2002
3103
0001
0001
0001
0001
0001
0001
0001
0001
0001
0001
,  // measure 53
2020
3130
0022
1033
0100
0100
0100
0100
1001
0010
1100
0000
1010
0100
1001
0100
,  // measure 54
0011
1000
0101
0010
1001
0000
0100
0100
0100
0100
0100
0100
0100
0100
0100
0100
,  // measure 55
2002
3013
2002
3103
2020
3130
0001
0001
0001
0001
0001
0001
0110
1000
0101
0010
,  // measure 56
1001
0100
0011
1000
0101
0000
1000
0100
0010
0001
1000
0000
0010
0100
1000
0001
,  // measure 57
0010
2002
0000
0000
,  // measure 58
3013
0100
0010
0100
0000
0000
0001
0100
0010
1000
0100
0010
0001
1000
0100
0000
,  // measure 59
0011
0100
0011
1000
0101
0010
1001
0100
,  // measure 60
0011
1000
0101
0010
1001
0100
1010
0100
,  // measure 61
1001
0100
1010
0001
1100
0010
1100
0001
,  // measure 62
1010
0100
1010
0001
1100
0010
1001
0100
,  // measure 63
1010
0001
1100
0010
1001
0100
1010
0001
,  // measure 64
1100
0001
1010
0001
1100
0010
1001
0100
,  // measure 65
0011
0000
0100
0000
0010
0001
0100
0010
1000
0100
0010
0001
0100
0010
1000
0100
,  // measure 66
1000
0001
0100
0010
0100
0001
0010
0001
0100
0010
1000
0100
0010
0001
2200
0000
,  // measure 67
3300
0001
1100
0010
1001
0100
1010
0001
,  // measure 68
1100
0010
1001
0100
1010
0001
1100
0010
,  // measure 69
1100
0001
1010
0100
1010
0001
1100
0010
,  // measure 70
1001
0100
1010
0001
1100
0010
1100
0001
,  // measure 71
1100
0000
0000
0010
0000
0000
1001
0000
0000
0100
0000
0000
1010
0000
0000
0100
0000
0000
1010
0000
0000
0001
0000
1000
,  // measure 72
0000
0010
0000
0100
0000
0001
0000
0010
0000
0100
0000
0010
0000
0001
0000
0100
0000
0010
0000
1000
0000
0001
0000
0000
,  // measure 73
0000
0000
0000
0110
0000
0000
0000
0000
0000
2020
0000
0000
0000
0000
0000
3030
0000
0000
1000
0000
0001
0000
0100
0000
,  // measure 74
0010
1000
0100
0010
0001
0100
0010
0100
0010
1000
0000
0001
,  // measure 75
1010
0001
0000
0100
0000
0010
1001
0100
0000
0001
0000
0010
,  // measure 76
1001
0100
0000
0010
0000
1000
0011
0100
0000
0010
0000
1000
,  // measure 77
0011
0100
0010
1000
0100
0010
1001
0100
0010
1000
0001
0100
,  // measure 78
1010
0001
0010
0100
0010
0100
0011
1000
0000
0100
0000
0010
,  // measure 79
1100
0010
0000
0001
0000
0100
0011
0100
0000
0100
0000
1000
,  // measure 80
0011
1000
0000
0010
0000
0100
1001
0100
0000
1000
0010
0100
,  // measure 81
1001
0100
0010
1000
0100
1000
0011
0100
0010
1000
0100
0010
,  // measure 82
0101
1000
0100
0010
0001
0100
0011
1000
0001
1000
0000
0010
,  // measure 83
0000
0100
0000
0001
0000
1000
0000
0100
0010
0100
0001
1000
,  // measure 84
0101
0000
0000
0000
0000
0000
0000
0000
0000
0000
0000
0000
0000
0000
0000
0000
0010
0000
0000
0000
0000
0000
0000
0000
0000
0000
0000
0000
0000
0000
0000
0000
0001
0000
0000
0000
0000
0000
0000
0000
0000
0000
0000
0000
0000
0000
0000
0000
2002
0000
0000
0000
0000
0000
0000
0000
0000
0000
0000
0000
0000
0000
0000
0000
0000
0000
0000
0000
0000
0000
0000
0000
0000
0000
0000
0000
0000
0000
0000
0000
0000
0000
0000
0000
0000
0000
0000
0000
0000
0000
0000
0000
0000
3003
0000
0000
2002
0000
0000
0000
0000
0000
0000
0000
0000
0000
0000
0000
0000
0000
0000
0000
0000
0000
0000
0000
0000
0000
0000
0000
0000
0000
0000
0000
0000
0000
0000
0000
0000
0000
0000
0000
0000
0000
0000
0000
0000
0000
0000
0000
0000
3003
0000
0000
2002
0000
0000
0000
0000
0000
0000
0000
0000
0000
0000
0000
0000
0000
0000
0000
0000
0000
0000
0000
0000
0000
0000
0000
0000
0000
0000
0000
0000
0000
0000
0000
0100
0000
0000
0000
0000
0000
0000
0000
0000
0000
0000
0000
0000
0000
0000
0000
,  // measure 85
0010
0000
0000
0000
0100
0000
0000
0000
0010
0000
0000
0000
0100
0000
0000
0000
0010
0000
0000
0000
0100
0000
0000
0000
0010
0000
0000
0000
0100
0000
0000
0000
0010
0000
0000
0000
3103
0000
0000
0010
0000
0000
0100
0000
0000
0010
0000
0000
,  // measure 86
1000
0001
1000
0001
1000
0010
1000
0010
1000
0010
1000
0010
1001
0000
0000
0000
,  // measure 87
0011
1000
0100
0010
0100
0010
1001
0100
0010
1000
0100
1000
,  // measure 88
0101
1000
0001
1000
0001
0100
0011
0100
0010
1000
0100
1000
,  // measure 89
0011
0100
0010
0100
0010
0001
1010
0100
0010
0100
0010
1000
,  // measure 90
0110
1000
0001
0100
0010
1000
0101
0010
0001
0010
0100
1000
,  // measure 91
0101
0010
0100
0001
0100
0010
0101
0010
0001
0010
1000
0010
,  // measure 92
1001
0010
0100
0001
0100
1000
0110
0001
0100
1000
0100
0001
,  // measure 93
1100
0010
0001
0100
0010
1000
0110
1000
0001
0100
0010
1000
,  // measure 94
0110
1000
0001
0100
0010
0100
0011
1000
0100
0001
0100
0010
,  // measure 95
1001
0100
0010
0100
1000
0100
1010
0100
0010
0001
0100
0001
,  // measure 96
1010
0100
1000
0001
0100
0010
1100
0001
0100
0010
1000
0100
,  // measure 97
1010
0001
0100
0010
1000
0001
1100
0010
1000
0100
0010
0001
,  // measure 98
1010
0001
0010
0100
1000
0100
1010
0100
0010
0001
0100
0001
,  // measure 99
1010
0100
1000
0001
0100
0010
0101
0010
1000
0100
0010
0100
,  // measure 100
1010
0001
0100
1000
0001
0100
0011
1000
0100
1000
0001
0100
,  // measure 101
0010
0100
0010
1000
0001
0100
0001
0010
0001
0100
0010
1000
,  // measure 102
0100
0001
0100
0010
0001
0100
0010
0100
1000
0202
0000
0000
,  // measure 103
1313
0100
0010
0001
0010
0100
1001
0100
0001
0100
0010
0001
,  // measure 104
1100
0010
1000
0100
1000
0010
1100
0001
0100
0010
0100
0001
,  // measure 105
1010
0100
0010
0001
0100
0010
0101
0010
1000
0100
1000
0001
,  // measure 106
1100
0010
0100
0001
0100
0001
0110
0001
1000
0001
1000
0001
,  // measure 107
1100
0010
1000
0010
1000
0001
1100
0010
1000
0100
0001
0100
,  // measure 108
1010
0001
0100
0010
0100
0001
1010
0100
0010
0001
0100
0010
,  // measure 109
1100
0001
0010
0100
0010
1000
0110
0001
0010
1000
0010
0001
,  // measure 110
1100
0010
1000
0100
1000
0001
1100
0010
1000
0100
1000
0001
,  // measure 111
1100
0010
0100
0010
1000
0100
1010
0100
1000
0010
0100
0010
,  // measure 112
1001
0100
0010
0100
1000
0010
0101
0010
1000
0100
0010
1000
,  // measure 113
0011
0100
0010
1000
0100
0010
1001
0100
1000
0100
1000
0010
,  // measure 114
0101
0010
1000
0001
0100
0010
1100
0001
0010
0100
0010
0001
,  // measure 115
0110
0001
1000
0100
0001
0100
1010
0100
0010
0001
0100
0010
,  // measure 116
1100
0001
0100
0010
0100
0001
1010
0100
0010
0001
0100
0010
,  // measure 117
1001
0100
1000
0010
0100
0010
1001
0100
0010
0100
0010
0100
,  // measure 118
0011
1000
0100
1000
0010
0100
1010
0100
0001
0010
0100
0010
,  // measure 119
1001
0100
0010
0100
0001
1000
0101
1000
0001
1000
0001
1000
,  // measure 120
0101
0010
0001
0010
0001
0100
0011
1000
0100
1000
0001
0100
,  // measure 121
0010
0001
0010
0100
1000
0100
0010
0001
1000
0220
0000
0000
,  // measure 122
0000
0000
0000
0330
;
